<?xml version="1.0" standalone="no"?>
<!DOCTYPE svg PUBLIC "-//W3C//DTD SVG 1.1//EN" "http://www.w3.org/Graphics/SVG/1.1/DTD/svg11.dtd" >
<svg xmlns="http://www.w3.org/2000/svg" xmlns:xlink="http://www.w3.org/1999/xlink" version="1.1">
<metadata>
Created by FontForge 20161003 at Fri Dec  9 18:02:20 2016
By Jesús Eduardo, Jorge Maldonado Ventura, Gabriel Alexander.
</metadata>
<defs>
<font id="libre-icons" horiz-adv-x="1024" >
  <font-face font-family="LibreVideoJS" font-weight="400" font-stretch="normal" units-per-em="1024" panose-1="0 0 0 0 0 0 0 0 0 0" ascent="960" descent="-64" bbox="-11 -71 1472 971" underline-thickness="0" underline-position="0" unicode-range="U+0001-FFFD"/>
<missing-glyph/>
<glyph glyph-name=".notdef" unicode="&#xfffd;"/>
<glyph glyph-name="glyph1" horiz-adv-x="0" d="M0 0v0v0v0z"/>
<glyph glyph-name="glyph1" horiz-adv-x="0" d="M0 0v0v0v0z"/>
<glyph glyph-name="nonmarkingreturn" horiz-adv-x="341"/>
<glyph glyph-name="uni0001" horiz-adv-x="0" d="M0 0v0v0v0z"/>
<glyph glyph-name="space" unicode=" " horiz-adv-x="512" d="M0 0v0v0v0z"/>
<glyph glyph-name="uniE000" unicode="&#xe000;" d="M3 -61v451l146 -145l200 199l159 -159l-199 -200l145 -146h-451v0zM570 957h451v-451l-146 145l-200 -199l-159 159l199 200l-145 146v0z"/>
<glyph glyph-name="uniE001" unicode="&#xe001;" d="M909 509l-741 441q-7 4 -14 6.5t-15 2.5q-22 0 -37.5 -15.5t-15.5 -37.5v0v-916v0q0 -22 15.5 -37.5t37.5 -15.5q8 0 15.5 2.5t14.5 6.5l740 441q13 10 21 26t8 35t-8 34.5t-21 26.5v0z"/>
<glyph glyph-name="uniE002" unicode="&#xe002;" d="M288 960h-192q-27 0 -45.5 -18.5t-18.5 -45.5v-896q0 -27 18.5 -45.5t45.5 -18.5h192q27 0 45.5 18.5t18.5 45.5v896q0 27 -18.5 45.5t-45.5 18.5v0zM928 960h-192q-27 0 -45.5 -18.5t-18.5 -45.5v-896q0 -27 18.5 -45.5t45.5 -18.5h192q27 0 45.5 18.5t18.5 45.5v896 q0 27 -18.5 45.5t-45.5 18.5v0z"/>
<glyph glyph-name="uniE003" unicode="&#xe003;" d="M960 341v-85h-85l-107 107l-107 -107h-85v85l107 107l-107 107v85h85l107 -107l107 107h85v-85l-107 -107l107 -107v0zM416 0q-6 0 -12 2.5t-11 6.5l-246 247h-115q-13 0 -22.5 9.5t-9.5 22.5v320q0 13 9.5 22.5t22.5 9.5h115l246 247q7 6 16.5 8t18.5 -1q9 -4 14.5 -12 t5.5 -18v-832q0 -10 -5.5 -18t-14.5 -12q-3 -1 -6 -1.5t-6 -0.5v0z"/>
<glyph glyph-name="uniE004" unicode="&#xe004;" d="M549 219q-9 0 -18 3.5t-16 10.5q-14 14 -14 34t14 34q30 30 45.5 68.5t15.5 78.5t-15.5 78.5t-45.5 68.5q-14 14 -14 34t14 34t34 14t34 -14q44 -45 66.5 -101t22.5 -114t-22.5 -114.5t-66.5 -100.5q-7 -7 -16 -10.5t-18 -3.5v0zM416 0q-6 0 -12 2.5t-11 6.5l-246 247 h-115q-13 0 -22.5 9.5t-9.5 22.5v320q0 13 9.5 22.5t22.5 9.5h115l246 247q7 6 16.5 8t18.5 -1q9 -4 14.5 -12t5.5 -18v-832q0 -10 -5.5 -18t-14.5 -12q-3 -1 -6 -1.5t-6 -0.5v0z"/>
<glyph glyph-name="uniE005" unicode="&#xe005;" d="M720 128q-10 0 -18.5 3.5t-15.5 11.5q-14 14 -14 33.5t14 33.5q49 50 73.5 111.5t24.5 126.5t-24.5 126.5t-73.5 111.5q-14 14 -14 33.5t14 33.5t33.5 14.5t33.5 -14.5q31 -30 54.5 -65.5t39.5 -74t24.5 -80.5t8.5 -85t-8.5 -85t-24.5 -80.5t-39.5 -74t-54.5 -66.5 q-7 -7 -15.5 -10.5t-18.5 -3.5v0h1zM549 219q-9 0 -18 3.5t-16 10.5q-14 14 -14 34t14 34q30 30 45.5 68.5t15.5 78.5t-15.5 78.5t-45.5 68.5q-14 14 -14 34t14 34t34 14t34 -14q44 -45 66.5 -101t22.5 -114t-22.5 -114.5t-66.5 -100.5q-7 -7 -16 -10.5t-18 -3.5v0zM416 0 q-6 0 -12 2.5t-11 6.5l-246 247h-115q-13 0 -22.5 9.5t-9.5 22.5v320q0 13 9.5 22.5t22.5 9.5h115l246 247q7 6 16.5 8t18.5 -1q9 -4 14.5 -12t5.5 -18v-832q0 -10 -5.5 -18t-14.5 -12q-3 -1 -6 -1.5t-6 -0.5v0z"/>
<glyph glyph-name="uniE006" unicode="&#xe006;" horiz-adv-x="1088" d="M890 38q-9 0 -18 3.5t-16 10.5q-14 14 -14 34t14 34q33 33 58.5 71t42.5 79.5t26 86t9 91.5q0 46 -9 91t-26 86.5t-42.5 79.5t-58.5 71q-14 14 -14 34t14 34t34 14t34 -14q40 -40 70.5 -85.5t51 -96t31.5 -104.5t11 -110t-11 -110t-31.5 -104.5t-51 -96t-70.5 -85.5 q-7 -7 -16 -10.5t-18 -3.5v0zM720 128q-10 0 -18.5 3.5t-15.5 11.5q-14 14 -14 33.5t14 33.5q49 50 73.5 111.5t24.5 126.5t-24.5 126.5t-73.5 111.5q-14 14 -14 33.5t14 33.5t33.5 14.5t33.5 -14.5q31 -30 54.5 -65.5t39.5 -74t24.5 -80.5t8.5 -85t-8.5 -85t-24.5 -80.5 t-39.5 -74t-54.5 -66.5q-7 -7 -15.5 -10.5t-18.5 -3.5v0h1zM549 219q-9 0 -18 3.5t-16 10.5q-14 14 -14 34t14 34q30 30 45.5 68.5t15.5 78.5t-15.5 78.5t-45.5 68.5q-14 14 -14 34t14 34t34 14t34 -14q44 -45 66.5 -101t22.5 -114t-22.5 -114.5t-66.5 -100.5 q-7 -7 -16 -10.5t-18 -3.5v0zM416 0q-6 0 -12 2.5t-11 6.5l-246 247h-115q-13 0 -22.5 9.5t-9.5 22.5v320q0 13 9.5 22.5t22.5 9.5h115l246 247q7 6 16.5 8t18.5 -1q9 -4 14.5 -12t5.5 -18v-832q0 -10 -5.5 -18t-14.5 -12q-3 -1 -6 -1.5t-6 -0.5v0z"/>
<glyph glyph-name="uniE007" unicode="&#xe007;" horiz-adv-x="1027" d="M512 832q80 0 150 -30.5t122 -82.5t82 -122t30 -149q0 -80 -30 -150t-82 -122t-122 -82t-150 -30q-79 0 -149 30t-122 82t-82.5 122t-30.5 150q0 79 30.5 149t82.5 122t122 82.5t149 30.5v0zM512 928q-99 0 -186.5 -38t-152.5 -103t-103 -152.5t-38 -186.5 q0 -100 38 -187.5t103 -152.5t152.5 -102.5t186.5 -37.5q100 0 187 37.5t152.5 102.5t103 152.5t37.5 187.5q0 99 -37.5 186.5t-103 152.5t-152.5 103t-187 38v0v0zM404 666l335 -216l-335 -217v433z"/>
<glyph glyph-name="uniE008" unicode="&#xe008;" horiz-adv-x="1536" d="M1324 0h-1112q-61 0 -104.5 43.5t-43.5 105.5v598q0 62 43.5 105.5t104.5 43.5h1112q61 0 104.5 -43.5t43.5 -105.5v-598q0 -62 -43.5 -105.5t-104.5 -43.5v0zM454 500q3 13 8 25t12 22q6 11 15 19t20 14t24.5 9t29.5 3q9 0 17 -1t16 -4t15 -7t13 -9q7 -5 12 -11t9 -13 t7 -14t4 -16h90q-2 19 -7 35.5t-13 30.5q-8 15 -18 27t-23 22q-12 10 -26 17t-30 13q-15 5 -31.5 7.5t-34.5 2.5q-24 0 -46 -4.5t-42 -13.5q-19 -8 -35.5 -20t-30.5 -28q-13 -15 -23.5 -33t-17.5 -38q-7 -21 -10.5 -43.5t-3.5 -46.5q0 -23 3.5 -45t10.5 -42t17.5 -38 t23.5 -33q14 -15 30.5 -26.5t35.5 -20.5q20 -8 41.5 -12.5t46.5 -4.5q20 0 38 3t34 9t30.5 15t26.5 20t22 25t18 30q7 17 11.5 35t6.5 38h-90q-3 -22 -10.5 -39t-19.5 -31q-12 -13 -29 -19.5t-38 -6.5q-16 0 -29.5 3t-24.5 9t-20 14.5t-15 18.5q-7 10 -12 21.5t-8 24.5 q-4 13 -5.5 26t-1.5 27t1.5 27.5t5.5 26.5v0v0v0zM895 500q3 13 8 25t12 22q7 11 16 19t20 14t24.5 9t29.5 3q8 0 16.5 -1t16.5 -4q7 -3 14.5 -7t13.5 -9t11.5 -11t9.5 -13t6.5 -14t3.5 -16h91q-2 19 -7 35.5t-13 30.5q-8 15 -18.5 27t-22.5 22t-26 17t-30 13 q-16 5 -32.5 7.5t-33.5 2.5q-25 0 -47 -4.5t-41 -13.5q-20 -8 -36.5 -20t-29.5 -28q-14 -15 -24 -33t-17 -38q-7 -21 -11 -43.5t-4 -46.5q0 -23 4 -45t11 -42t17 -38t24 -33q13 -15 29.5 -26.5t36.5 -20.5q19 -8 41 -12.5t47 -4.5q19 0 37 3t35 9q16 6 30.5 15t26.5 20 t22 25t17 30q8 17 12.5 35t6.5 38h-91q-3 -22 -10 -39t-19 -31q-13 -13 -29.5 -19.5t-37.5 -6.5q-16 0 -29.5 3t-24.5 9t-20 14.5t-16 18.5t-12 21.5t-8 24.5t-4.5 26t-1.5 27t1.5 27.5t4.5 26.5v0v0v0z"/>
<glyph glyph-name="uniE00B" unicode="&#xe00b;" d="M849 652l128 -127h-390v389l127 -127l171 171l139 -138l-175 -168v0zM310 109l-172 -171l-138 138l171 172l-127 127h390v-390l-124 124v0z"/>
<glyph glyph-name="uniE00C" unicode="&#xe00c;" d="M272 476h480v-120h-480v120zM272 656h480v-120h-480v120zM932 896h-840q-25 0 -42.5 -17.5t-17.5 -42.5v-660q0 -25 17.5 -42.5t42.5 -17.5h120v-180l270 180h450q25 0 42.5 17.5t17.5 42.5v660q0 25 -17.5 42.5t-42.5 17.5v0zM872 236h-390l-150 -90v90h-180v540h720 v-540v0z"/>
<glyph glyph-name="uniE00D" unicode="&#xe00d;" d="M1044 971v-1042h-1055v1042h1055zM328 506l-249 -419h843v1l-193 198l-127 -96l-236 316h-38z"/>
<glyph glyph-name="uniE01E" unicode="&#xe01e;" d="M512 960q-26 0 -45 -19t-19 -45v-128q0 -26 19 -45t45 -19t45 19t19 45v128q0 26 -19 45t-45 19v0zM512 192q-26 0 -45 -18.5t-19 -45.5v-128q0 -27 19 -45.5t45 -18.5t45 18.5t19 45.5v128q0 27 -19 45.5t-45 18.5v0zM783 629l91 91q19 18 19 44.5t-19 45.5t-45.5 19 t-45.5 -19l-90 -90q-19 -19 -19 -45.5t19 -45.5t45.5 -19t44.5 19v0zM240 267l-90 -90q-19 -19 -19 -45.5t19 -45.5t45.5 -19t44.5 19l91 91q19 18 19 44.5t-19 45.5t-45.5 19t-45.5 -19v0zM240 810q-18 19 -44.5 19t-45.5 -19t-19 -45.5t19 -44.5l90 -91q19 -19 45.5 -19 t45.5 19t19 45.5t-19 45.5l-91 90v0zM783 267q-18 19 -44.5 19t-45.5 -19t-19 -45.5t19 -44.5l90 -91q19 -19 45.5 -19t45.5 19t19 45.5t-19 45.5l-91 90v0zM960 512h-128q-27 0 -45.5 -19t-18.5 -45t18.5 -45t45.5 -19h128q27 0 45.5 19t18.5 45t-18.5 45t-45.5 19v0z M256 448q0 26 -19 45t-45 19h-128q-26 0 -45 -19t-19 -45t19 -45t45 -19h128q26 0 45 19t19 45v0z"/>
<glyph glyph-name="uniE606" unicode="&#xe606;" d="M800 448q0 -60 -22.5 -112.5t-61.5 -91.5t-91.5 -61.5t-112.5 -22.5t-112.5 22.5t-91.5 61.5t-61.5 91.5t-22.5 112.5t22.5 112.5t61.5 91.5t91.5 61.5t112.5 22.5t112.5 -22.5t91.5 -61.5t61.5 -91.5t22.5 -112.5v0z"/>
<glyph glyph-name="uniE607" unicode="&#xe607;" horiz-adv-x="1152" d="M1042 153l-401 686q-25 25 -60.5 25t-60.5 -25l-401 -686q-25 -25 -25 -60.5t25 -60.5h923q25 25 25 60.5t-25 60.5v0zM544 593q0 20 14 34t34 14t34 -14t14 -34v-224q0 -20 -14 -34t-34 -14t-34 14t-14 34v224v0zM592 160q-20 0 -34 14.5t-14 33.5q0 20 14 34t34 14 t34 -14t14 -34q0 -19 -14 -33.5t-34 -14.5v0z"/>
<glyph glyph-name="uniE60C" unicode="&#xe60c;" horiz-adv-x="1152" d="M751 486l-575 396q-34 22 -58.5 7.5t-24.5 -57.5v-768q0 -43 24.5 -57.5t58.5 7.5l575 396l11.5 10.5t11.5 27.5t-11.5 27.5l-11.5 10.5v0zM892 927h79q34 0 57 -7.5t23 -40.5v-862q0 -33 -23 -40.5t-57 -7.5h-79q-34 0 -57 7.5t-23 40.5v862q0 33 23 40.5t57 7.5v0z"/>
<glyph glyph-name="uniE60F" unicode="&#xe60f;" horiz-adv-x="1152" d="M968 882l-575 -396l-11 -10.5t-11 -27.5t11 -27.5l11 -10.5l575 -396q34 -22 58.5 -7.5t24.5 57.5v768q0 43 -24.5 57.5t-58.5 -7.5v0zM253 927h-80q-33 0 -56.5 -7.5t-23.5 -40.5v-862q0 -33 23.5 -40.5t56.5 -7.5h80q33 0 56.5 7.5t23.5 40.5v862q0 33 -23.5 40.5 t-56.5 7.5v0z"/>
<glyph glyph-name="uniE610" unicode="&#xe610;" horiz-adv-x="896" d="M781 611q26 -43 40 -92.5t14 -102.5q0 -79 -30 -149t-82.5 -122t-122.5 -82.5t-149 -30.5t-149 30.5t-122 82.5t-82.5 122t-30.5 149t30.5 149t82.5 122t122 82.5t149 30.5v128l320 -173l-320 -179v128q-60 0 -112.5 -22.5t-91.5 -61.5t-61.5 -91.5t-22.5 -112.5 t22.5 -112.5t61.5 -91.5t91.5 -61.5t112.5 -22.5t112.5 22.5t91.5 61.5t61.5 91.5t22.5 112.5q0 41 -11 78.5t-30 68.5l83 48v0z"/>
<glyph glyph-name="uniE615" unicode="&#xe615;" d="M675 448l247 -246q36 -36 36 -85.5t-36 -78.5q-36 -36 -85.5 -36t-78.5 36l-246 247l-246 -247q-36 -36 -85.5 -36t-78.5 36q-36 36 -36 85.5t36 78.5l247 246l-247 246q-36 36 -36 85.5t36 78.5q36 36 85.5 36t78.5 -36l246 -247l246 247q36 36 85.5 36t78.5 -36 q36 -36 36 -85.5t-36 -78.5l-247 -246v0z"/>
</font>
</defs>
</svg>
